dead-donkey.com
20.02.18 Fangoria returns!
21.07.13 Nightbreed: The Cabal...
16.02.13 Fist of Jesus (2013)
15.09.12 Videodrome remake
08.09.12 phpBB upgrade and ser...
05.08.12 Site updates and patc...
09.06.12 Mad God on Kickstarte...
23.05.12 Carmageddon on Kickst...
29.04.12 Mel Gibson in Machete...
29.04.12 Forum registrations o...
21.04.12 Prometheus
06.02.12 Dead-Donkey Twitter,...
13.09.19 Axiom, The (2018)
08.09.19 Robowar (1988)
01.09.19 Shadowzone (1990)
31.08.19 Ma (2019)
25.08.19 Doghouse (2009)
24.08.19 Ice Soldiers (2013)
Navigation
Sun 15 Sep, 2019
· Site Map
· Frontpage
· Scifi Forums
· HHAH Forums
· Fileheaven Forums
 
Edonkey Links
· Movies
· Games
· Series
· Collections
· Old Movie Archive
 
News
· All
· Site News
· Horror News
· Movie News
· Games News
· P2P News
· News Archive
 
Reviews
· Movie Reviews
· Game Reviews
· Series Reviews
 
Help
· Emule FAQ
· Encoding FAQ
· Playback / Codec FAQ
· Site FAQ
 
Downloads
· Client Downloads
· Codec Downloads
· Utility Downloads
· Misc Downloads
 
Links
· P2P Links
· Horror Links
· Movie Links
· Resource Links
 
Ángel Negro (aka Black Angel) (2000)

Comment
This is said to be the first horror movie from Chile. Considering that is true, I would rate this as rather good. But comparing it to similar movies that were shot before (like Scream) it can be considered as a rip-off. There is nothing really special or unique about it.

The movie begins with a tape recording showing the ending of a graduation party. Students from the Royal School of Santiago get together in a van and drive to a seaside cliff. This is where an accident happens and one girl falls from the cliff and (probably) dies.

Ten years later the members witnessing the accident get slashed one by one. A killer dressed in black and wearing a white mask is on his way to finish them off. Nobody knows who it might be, except Gabriel who is now a pathologist and was also part of the group involved in the accident. He thinks that Angel (the girl who died ten years ago) is back and stalking those, who were responsible for her death.

Later on it gets revealed that it was not truly an accident. Some of the students played a stupid joke, which made Angel get upset and eventually fall from the cliff.

The local police and a detective try to solve this mysterious line of crimes. Finally only Gabriel and Lorena are left, who know about what actually happened after the graduation party. Is it too late for them to stop the killer?

There is a twist at the very end. This is however not original enough to make the movie stand out from similar films. There could (and should) have been much more slashing in this one. I feel a bit disappointed after watching it twice. It is simply missing any original ideas and thus doesn't belong to the memorable flicks of this genre.

Quote:
http://i224.photobucket.com/albums/dd139/redveil/Angel%20Negro%202000/AngelNegroDVDCover.jpg



Someone on amazon.com Wrote:
The lovely Angel disappears following a jubilant graduation party, leaving only questions. Years later, her group of friends numbers diminish at the hands of a mysterious serial killer, Angel’s ex-boyfriend attempts to answer all questions surrounding her disappearance and the subsequent string of murders.


------------------------------- General -------------------------------

Complete name : Angel.Negro.2000.DVDRip.XviD.AC3.avi
Format : AVI
Format/Info : Audio Video Interleave
Format profile : OpenDML
File size : 1.45 GiB
Duration : 1h 32mn
Overall bit rate : 2244 Kbps
Writing application : AVI-Mux GUI 1.17.7, Aug 8 2006 20:59

-------------------------------- Video --------------------------------
Format : MPEG-4 Visual
Format profile : Streaming Video@L1
Format settings, BVOP : Yes
Format settings, QPel : No
Format settings, GMC : No warppoints
Format settings, Matrix : Custom
Codec ID : XVID
Codec ID/Hint : XviD
Duration : 1h 32mn
Bit rate : 1791 Kbps
Width : 672 pixels
Height : 384 pixels
Display aspect ratio : 16/9
Frame rate : 23.976 fps
Resolution : 8 bits
Colorimetry : 4:2:0
Scan type : Progressive
Bits/(Pixel*Frame) : 0.289
Stream size : 1.16 GiB (80%)
Writing library : XviD 1.2.0.dev47 (UTC 2006-11-01)

-------------------------------- Audio --------------------------------
Format : AC-3
Format/Info : Audio Coding 3
Format profile : Dolby Digital
Codec ID : 2000
Bit rate mode : Constant
Bit rate : 448 Kbps
Channel(s) : 2 channels
Channel positions : L R
Sampling rate : 48.0 KHz
Stream size : 297 MiB (20%)
Alignment : Aligned on interleaves
Interleave, duration : 64 ms (1.53 video frames)
Interleave, preload duration : 192 ms
Title : VTS_02_1 T01 2_0ch 448Kbps DELAY 0ms


http://i224.photobucket.com/albums/dd139/redveil/Angel%20Negro%202000/ANGE2000_01.jpg





Director:
Jorge Olguín

Cast:
Álvaro Morales
Andrea Freund
Blanca Lewin
Juan Pablo Bastidas
Fernando Gallardo
Arturo Ruiz Tagle

ED2K download link:
Movie: Angel.Negro.2000.DVDRip.XviD.AC3.avi (1.45 GB) [Stats]
English subtitles: Angel.Negro.2000.DVDRip.XviD.AC3.srt (54 KB) [Stats]

Thanks to:
Tleilaxu - for the rip
grzEGOrz - for sharing his files
elguaxo - for providing this rip
STR - for the hardcoded subtitles

Notes:
Movie is Spanish, so be sure to grab the English subtitles if you need so!
Subtitles were ripped with SubRip 1.5. It was difficult, but I succeeded!

Format: DivX/XviD
Source: DVD
Category: Slasher
Sub-Category: Psychological
Date: 13 Apr, 2009
Hits: 5067
Score: 3/10
Submitter: RedVeil
Add this entry to facebook Add this entry to Del.icio.us Add this entry to stumbleupon
View original forum thread: Ángel Negro (aka Black Angel) (2000) (4 Replies)
Advertisement
 
Donation
· Help out
· Donations
· Affilate Schemes
· Feedback
 
Site Search

[Advanced Search]
 
Polls
What is the most important factor that makes you watch a horror movie?
IMDb rating or comments
Cover or poster (design, gore, atmosphere)
Screenshot pictures taken from the movie
Plot outline (background story)
Posts on dead-donkey rating the movie as good or bad
Persons involved (actors, producer, director)
Something else ... I will post it below.
  
pollcode.com free polls
 
Theme
 
Login
Username:

Password:


[Not Registered?]
[Forgot Password?]
 

Disclaimer
The content of this website was created for dead-donkey.com, but may be published freely with reference.
Submitted reviews are owned by the original author who should be contacted for permission on reproduction or publication. All referenced movies, games, and literature are property of their respective owners.
All ed2k links submitted are unfiltered, unmoderated, and unedited, and are provided as-is from hashlinks found freely on the edonkey2000 network and exist regardless of this site.
Their validity, legality and content is subject to the end users usage. Any harm encounted through such use is the responsability of the user.


This site's code was written by Spud The Destroyer for www.dead-donkey.com 2005+