dead-donkey.com
20.02.18 Fangoria returns!
21.07.13 Nightbreed: The Cabal...
16.02.13 Fist of Jesus (2013)
15.09.12 Videodrome remake
08.09.12 phpBB upgrade and ser...
05.08.12 Site updates and patc...
09.06.12 Mad God on Kickstarte...
23.05.12 Carmageddon on Kickst...
29.04.12 Mel Gibson in Machete...
29.04.12 Forum registrations o...
21.04.12 Prometheus
06.02.12 Dead-Donkey Twitter,...
17.10.18 Patient Zero (2018)
16.10.18 Death Race 4: Beyond An...
13.10.18 Don't Be Afraid Of The...
07.10.18 Anon (2018)
06.10.18 Curve (2015)
03.10.18 Feral (2017)
Navigation
Thu 18 Oct, 2018
· Site Map
· Frontpage
· Scifi Forums
· HHAH Forums
· Fileheaven Forums
 
Edonkey Links
· Movies
· Games
· Series
· Collections
· Old Movie Archive
 
News
· All
· Site News
· Horror News
· Movie News
· Games News
· P2P News
· News Archive
 
Reviews
· Movie Reviews
· Game Reviews
· Series Reviews
 
Help
· Emule FAQ
· Encoding FAQ
· Playback / Codec FAQ
· Site FAQ
 
Downloads
· Client Downloads
· Codec Downloads
· Utility Downloads
· Misc Downloads
 
Links
· P2P Links
· Horror Links
· Movie Links
· Resource Links
 
Creepers (1990)

Comment
Very, very bad movie. Recommendation: watch it late at night.

Quote:
http://i224.photobucket.com/albums/dd139/redveil/Creepers%201990/CreepersDVDCover.jpg



Ira Kroll on IMDb Wrote:
Evil nuclear power plant manager is dumping nuclear waste in a forest. People start getting killed. Drunken PhD in power plant starts tracking radiation in the forest. More people killed. Newspaper reporter and local boy and girl start investigating. Still more people killed. Townspeople try to remove nuclear waste. Yet more people killed. EPA cleans up the mess with bulldozers.


------------------------------------ General ---------------------------------

Complete name : Creepers.1991.VHSrip.XviD.HaLTRoN.avi
Format : AVI
File size : 699 MiB
Duration : 1h 30mn
Overall bit rate : 1078 Kbps

------------------------------------- Video ----------------------------------
Format : MPEG-4 Visual
Format settings, BVOP : Yes
Format settings, QPel : No
Format settings, GMC : No warppoints
Format settings, Matrix : Custom
Muxing mode : Packet Bitstream
Bit rate : 945 Kbps
Width : 496 pixels
Height : 368 pixels
Display aspect ratio : 4/3
Frame rate : 25.000 fps
Resolution : 8 bits
Colorimetry : 4:2:0
Scan type : Progressive
Bits/(Pixel*Frame) : 0.207
Stream size : 613 MiB (88%)
Writing library : XviD 1.1.0 (UTC 2005-11-22)

------------------------------------- Audio ----------------------------------
Format : MPEG Audio
Format version : Version 1
Format profile : Layer 3
Bit rate : 120 Kbps
Minimum bit rate : 32.0 Kbps
Channel(s) : 2 channels
Sampling rate : 48.0 KHz
Stream size : 78.0 MiB (11%)
Writing library : LAME3.97b
Encoding settings : VBR (mtrh)


http://i224.photobucket.com/albums/dd139/redveil/Creepers%201990/cree1990_01.jpg





Directors:
Joe D'Amato
Fabrizio Laurenti

Cast:
Mary Sellers
Jason Saucier
Bubba Reeves
Chelsi Stahr

ED2K download links:
Creepers.1991.VHSrip.XviD.HaLTRoN.avi (699 MB) [Stats]

Thanks to:
HaLTRoN - for the rip

Format: DivX/XviD
Source: DVD
Category: B-Movie
Sub-Category: None
Date: 30 Sep, 2009
Hits: 4383
Score: None
Submitter: Slayer
Add this entry to facebook Add this entry to Del.icio.us Add this entry to stumbleupon
View original forum thread: Creepers (1990) (aka Troll 3, The Crawlers, Contamination.7) (15 Replies)
Advertisement
 
Donation
· Help out
· Donations
· Affilate Schemes
· Feedback
 
Site Search

[Advanced Search]
 
Polls
What is the most important factor that makes you watch a horror movie?
IMDb rating or comments
Cover or poster (design, gore, atmosphere)
Screenshot pictures taken from the movie
Plot outline (background story)
Posts on dead-donkey rating the movie as good or bad
Persons involved (actors, producer, director)
Something else ... I will post it below.
  
pollcode.com free polls
 
Theme
 
Login
Username:

Password:


[Not Registered?]
[Forgot Password?]
 

Disclaimer
The content of this website was created for dead-donkey.com, but may be published freely with reference.
Submitted reviews are owned by the original author who should be contacted for permission on reproduction or publication. All referenced movies, games, and literature are property of their respective owners.
All ed2k links submitted are unfiltered, unmoderated, and unedited, and are provided as-is from hashlinks found freely on the edonkey2000 network and exist regardless of this site.
Their validity, legality and content is subject to the end users usage. Any harm encounted through such use is the responsability of the user.


This site's code was written by Spud The Destroyer for www.dead-donkey.com 2005+