dead-donkey.com
20.02.18 Fangoria returns!
21.07.13 Nightbreed: The Cabal...
16.02.13 Fist of Jesus (2013)
15.09.12 Videodrome remake
08.09.12 phpBB upgrade and ser...
05.08.12 Site updates and patc...
09.06.12 Mad God on Kickstarte...
23.05.12 Carmageddon on Kickst...
29.04.12 Mel Gibson in Machete...
29.04.12 Forum registrations o...
21.04.12 Prometheus
06.02.12 Dead-Donkey Twitter,...
11.11.18 Colossal (2016)
09.11.18 Primal Rage (2018)
04.11.18 Gateway, The (2018)
03.11.18 Shaun Of The Dead (2004...
01.11.18 Flora (2017)
28.10.18 Warning Shot (2018)
Navigation
Wed 14 Nov, 2018
· Site Map
· Frontpage
· Scifi Forums
· HHAH Forums
· Fileheaven Forums
 
Edonkey Links
· Movies
· Games
· Series
· Collections
· Old Movie Archive
 
News
· All
· Site News
· Horror News
· Movie News
· Games News
· P2P News
· News Archive
 
Reviews
· Movie Reviews
· Game Reviews
· Series Reviews
 
Help
· Emule FAQ
· Encoding FAQ
· Playback / Codec FAQ
· Site FAQ
 
Downloads
· Client Downloads
· Codec Downloads
· Utility Downloads
· Misc Downloads
 
Links
· P2P Links
· Horror Links
· Movie Links
· Resource Links
 
Rawhead Rex (1986)

Comment
Two rips available, I recommend the 1.24 GB rip by EDI. The movie itself is a cult classic and a must see for the fans!

Quote:
1.24 GB rip

This image has been resized

http://www.imdb.com/title/tt0091829/

Widescreen version (if it's really widescreen :roll: )
This is a DVDRip of the MadMovies DVD from Europe.

Aspect Ratio: DVDCompare say 1.78:1 but it's written 1.75:1 on the back cover.
Picture Format: Anamorphic

Code:

General
Complete name : Rawhead.Rex.1986.DVDRip.Widescreen.XviD.AC3.(MadMovies.DVD.Rip).avi
Format : AVI
Format/Info : Audio Video Interleave
File size : 1.24 GiB
Duration : 1h 25mn
Overall bit rate : 2 073 Kbps
Writing application : VirtualDubMod 1.5.10.2 (build 2540/release)
Writing library : VirtualDubMod build 2540/release

Video
Format : MPEG-4 Visual
Format profile : Streaming Video@L1
Format settings, BVOP : Yes
Format settings, QPel : No
Format settings, GMC : No warppoints
Format settings, Matrix : Default
Codec ID : XVID
Codec ID/Hint : XviD
Duration : 1h 25mn
Bit rate : 1 871 Kbps
Width : 640 pixels
Height : 368 pixels
Display aspect ratio : 16/9
Frame rate : 25.000 fps
Resolution : 24 bits
Colorimetry : 4:2:0
Scan type : Progressive
Bits/(Pixel*Frame) : 0.318
Stream size : 1.12 GiB (90%)
Writing library : XviD 50

Audio
Format : AC-3
Format/Info : Audio Coding 3
Codec ID : 2000
Duration : 1h 25mn
Bit rate mode : Constant
Bit rate : 192 Kbps
Channel(s) : 2 channels
Channel positions : L R
Sampling rate : 48.0 KHz
Stream size : 118 MiB (9%)
Alignment : Split accross interleaves
Interleave, duration : 40 ms (1.00 video frame)
Interleave, preload duration : 500 ms



This image has been resized This image has been resized
This image has been resized This image has been resized
This image has been resized This image has been resized
This image has been resized This image has been resized
This image has been resized This image has been resized


Rawhead.Rex.1986.DVDRip.Widescreen.XviD.AC3.(MadMovies.DVD.Rip).avi (1.24 GB) [Stats]

Enjoy ! :beerchug:


700 MB rip

This is a rerip of Rawhead, not the xvid one that was floating around on irc.If anyone has started to d/l the xvid one, pm me and I'll make sure you finish it. Will post a sample this evening.

Bobble

Sample : - sample rawhead re-rip divx 5.03[bobble991].avi

Movie : - rawhead re-rip divx 5.03[bobble991].avi

Enjoy

Format: DivX/XviD
Source: DVD
Category: B-Movie
Sub-Category: Monster Movie
Date: 18 Sep, 2010
Hits: 4930
Score: None
Submitter: Slayer
Add this entry to facebook Add this entry to Del.icio.us Add this entry to stumbleupon
View original forum thread: Rawhead Rex (1986) (25 Replies)
Advertisement
 
Donation
· Help out
· Donations
· Affilate Schemes
· Feedback
 
Site Search

[Advanced Search]
 
Polls
What is the most important factor that makes you watch a horror movie?
IMDb rating or comments
Cover or poster (design, gore, atmosphere)
Screenshot pictures taken from the movie
Plot outline (background story)
Posts on dead-donkey rating the movie as good or bad
Persons involved (actors, producer, director)
Something else ... I will post it below.
  
pollcode.com free polls
 
Theme
 
Login
Username:

Password:


[Not Registered?]
[Forgot Password?]
 

Disclaimer
The content of this website was created for dead-donkey.com, but may be published freely with reference.
Submitted reviews are owned by the original author who should be contacted for permission on reproduction or publication. All referenced movies, games, and literature are property of their respective owners.
All ed2k links submitted are unfiltered, unmoderated, and unedited, and are provided as-is from hashlinks found freely on the edonkey2000 network and exist regardless of this site.
Their validity, legality and content is subject to the end users usage. Any harm encounted through such use is the responsability of the user.


This site's code was written by Spud The Destroyer for www.dead-donkey.com 2005+