dead-donkey.com
20.02.18 Fangoria returns!
21.07.13 Nightbreed: The Cabal...
16.02.13 Fist of Jesus (2013)
15.09.12 Videodrome remake
08.09.12 phpBB upgrade and ser...
05.08.12 Site updates and patc...
09.06.12 Mad God on Kickstarte...
23.05.12 Carmageddon on Kickst...
29.04.12 Mel Gibson in Machete...
29.04.12 Forum registrations o...
21.04.12 Prometheus
06.02.12 Dead-Donkey Twitter,...
16.06.19 Havana Darkness (2019)
15.06.19 Evil Aliens (2005)
10.06.19 Vamp (1986)
09.06.19 Terror Experiment, The...
04.06.19 Captive State (2019)
03.06.19 Mutant Chronicles (2008...
Navigation
Tue 18 Jun, 2019
· Site Map
· Frontpage
· Scifi Forums
· HHAH Forums
· Fileheaven Forums
 
Edonkey Links
· Movies
· Games
· Series
· Collections
· Old Movie Archive
 
News
· All
· Site News
· Horror News
· Movie News
· Games News
· P2P News
· News Archive
 
Reviews
· Movie Reviews
· Game Reviews
· Series Reviews
 
Help
· Emule FAQ
· Encoding FAQ
· Playback / Codec FAQ
· Site FAQ
 
Downloads
· Client Downloads
· Codec Downloads
· Utility Downloads
· Misc Downloads
 
Links
· P2P Links
· Horror Links
· Movie Links
· Resource Links
 
Born Of Earth (2008)

Comment
Underground demons terrorise a little town. Daniel Baldwin is gonna save the day!

Quote:
From FH:

Born Of Earth (2008) DVDRiP-XViD-LKRG



Quote:
Genre : Horror

Plot : Over centuries humans have been mysteriously disappearing with no explanations, just hushed whispers in the dark. On the surface Prophet Hills seems like a perfect place to live and raise a family, but Danny Kessler (Baldwin) has seen better days. This is one man's journey to find the culprit of the ultimate sacrifice he's endured. He must face his demons and go back to the place that has haunted him. He must convince family, friends and townspeople that something is not right in Prophet Hills. He must make them believe that something evil is living beneath their own backyards.


Code:
Video
ID : 0
Format : MPEG-4 Visual
Format profile : Advanced Simple@L5
Format settings, BVOP : Yes
Format settings, QPel : No
Format settings, GMC : No warppoints
Format settings, Matrix : Default (H.263)
Muxing mode : Packed bitstream
Codec ID : XVID
Codec ID/Hint : XviD
Duration : 1h 20mn
Bit rate : 1 448 Kbps
Width : 716 pixels
Height : 396 pixels
Display aspect ratio : 16:9
Frame rate : 25.000 fps
Resolution : 8 bits
Colorimetry : 4:2:0
Scan type : Progressive
Bits/(Pixel*Frame) : 0.204
Stream size : 834 MiB (88%)
Writing library : XviD 1.2.1 (UTC 2008-12-04)

Audio
ID : 1
Format : AC-3
Format/Info : Audio Coding 3
Codec ID : 2000
Duration : 1h 20mn
Bit rate mode : Constant
Bit rate : 192 Kbps
Channel(s) : 2 channels
Channel positions : L R
Sampling rate : 48.0 KHz
Stream size : 111 MiB (12%)
Alignment : Aligned on interleaves
Interleave, duration : 40 ms (1.00 video frame)
Interleave, preload duration : 512 ms


http://www.imdb.com/title/tt1132438/









Born.To.Earth.2008.DVDRiP.XViD-LKRG.avi (951 MB) [Stats]

Format: DivX/XviD
Source: DVD
Category: Demonic
Sub-Category: None
Date: 27 Oct, 2010
Hits: 4999
Score: None
Submitter: Slayer
Add this entry to facebook Add this entry to Del.icio.us Add this entry to stumbleupon
View original forum thread: Born Of Earth (2008) (0 Replies)
Advertisement
 
Donation
· Help out
· Donations
· Affilate Schemes
· Feedback
 
Site Search

[Advanced Search]
 
Polls
What is the most important factor that makes you watch a horror movie?
IMDb rating or comments
Cover or poster (design, gore, atmosphere)
Screenshot pictures taken from the movie
Plot outline (background story)
Posts on dead-donkey rating the movie as good or bad
Persons involved (actors, producer, director)
Something else ... I will post it below.
  
pollcode.com free polls
 
Theme
 
Login
Username:

Password:


[Not Registered?]
[Forgot Password?]
 

Disclaimer
The content of this website was created for dead-donkey.com, but may be published freely with reference.
Submitted reviews are owned by the original author who should be contacted for permission on reproduction or publication. All referenced movies, games, and literature are property of their respective owners.
All ed2k links submitted are unfiltered, unmoderated, and unedited, and are provided as-is from hashlinks found freely on the edonkey2000 network and exist regardless of this site.
Their validity, legality and content is subject to the end users usage. Any harm encounted through such use is the responsability of the user.


This site's code was written by Spud The Destroyer for www.dead-donkey.com 2005+